club-music.1x.net filme pentru telefon

2 122 vizualizări
92 răspunsuri
#61
LucianGL
MW Addicted
2247 mesaje
din 22/08/2006
-2 aprecieri
05 iunie 2011, 20:52:15
convertoarele cu accelerare GPU sunt cele mai bune , fac fisierul mai mic si mai calitativ , functioneaza cu nvidia si ati ... filmul postat de mine cu 3 posturi in urma e convertit cu asa ceva folosind un ati , marimea fisierului e ( zic eu ) foarte mica in comparatie cu calitatea
cel mai bine converteste un nvidia , lasand lacrima imaginea in comparatie cu ati ce creaza patratele ce au fost recunoscute de reprezentati ca fiind in continuare nvidia cap de top , cu toate astea procesoarele pot inlocui acest impediment si deci rezultatele se vad . totusi poti face un 700 MB si sub 100 MB la o calitate super dar e nevoie de ceva munca ( ore adica,chiar daca e nevoie de super PC )
Dacă am face cu toții lucrurile pe care suntem capabili să le facem,ne-am uimi pe noi inșine - set by Lucian
[img]http://img32.imageshack.us/img32/5485/sexygirlsok.jpg[/img]
Publicitate
Publicitate
#62
ov1d1u
MW Moderator
5624 mesaje
din 12/12/2007
89 aprecieri
05 iunie 2011, 21:02:36
Serios, GPU-ul chiar nu are nicio legătură cu conversia video. Conversiile sunt doar calcule matematice, chestii fixe, orice fel de procesor le calculează la fel.
#63
whiteboy
MW Addicted
5940 mesaje
din 01/03/2008
5 aprecieri
05 iunie 2011, 21:06:11
@LucianGL, eu nu vad legatura intre convertor si placa video, poate dureaza mai putin, dar nu afecteaza calitatea deloc :|.
si nu cred ca ma insel!
autor subiect #64
gaabytzu_daredevil
MW Luver
176 mesaje
din 27/11/2007
55% warn
05 iunie 2011, 21:06:40
Am gasit Gom encoder.e foarte bun,numai ca de acum imi trebuie ceva ca sa pot pune si sutitrarea in film.
Eu merg cu Dacia,tu mergi pe jos!
#65
laur1989
MW Addicted
8382 mesaje
din 17/04/2007
4 aprecieri
05 iunie 2011, 21:12:26 • actualizat 05 iunie 2011, 21:14:55 (2 ori)
Si cum faci asta ? Adauga device-ul pixeli sa se vada excelent ? Daca te referi la o rezolutie de 240 sau 160 iese sub 100mb. E vorba si despre frame-uri cam cat pot duce device-urile, daca sunt in plus sau nu, de calitatea sunetului si multe alte chestii. De multe ori nu se tine cont de aceste aspecte. Daca ma intrebati pe mine fiecare film ar trebuii convertit pentru fiecare device in parte.

Btw cine se mai uita la filme pe rezolutie de 240x320 ? Treziti-va este 2011. Ar trebuii ca toti sa fiti pe cel putin 480x800. Nu inteleg cum puteti sta cu ochii "beliti" (scuze de expresie) intr-un device cu un display si o rezolutie atat de mica.

whiteboy 05-06-2011 21:06:11
@LucianGL, eu nu vad legatura intre convertor si placa video, poate dureaza mai putin, dar nu afecteaza calitatea deloc :|.
si nu cred ca ma insel!
Nici n-ai cum sa te inseli ! Afiseaza mai multe culori nvidia decat amd sau invers ? Sa fim seriosi.
#66
TABela
MW Addicted
3952 mesaje
din 05/08/2008
78 aprecieri
05 iunie 2011, 21:24:34 • actualizat 05 iunie 2011, 21:31:40 (1 ori)
Povesti. Conteaza din ce convertezi, si cum settezi convertirea. Frame rate etc. Restul nu conteaza. Filmele in calitate buna chiar si 240x320 vor avea cel putin 200 mb... Calitatea PC ului nu conteaza numai in masura sa poata rula aplicatia.  :P
TVC Portable va trebui sa studiezi putin setarile, sunt destul de multe, dar merge si dupa model de telefon, sau custom video, audio, sub, etc...
Iar acesta Makayama Nokia converter 3.5 este un converter foarte simplu, perfect pentru telefoanele vechi care au smart movie instalat. La acest program nu se poate adauga subtitrare, si acest program cum am scris converteste pentru sm.player , deci in format avi. Are definit setarile si pentru nokia 9300=600x200pix, nokia 9500=640x200pix etc... Numai daca aveti telefoane cu display exotic, va recomand acest program, in rest cum am scris e foarte simplu si cu putini setari. La prima pornire se inregistreaza, si va cere dupa inregistrare sa alegeti telefonul, alegeti orice model, nu conteaza, scrieti 15 cifre-123454321234541...nu conteaza 15 sa fie/ de vreme ce nu aveti smart movie.sis instalat pe telefon\ Daca vreti si smart pentru modelele acelea ce sunt in program, le pun sus si se pot debloca prin PC.
laur1989 05-06-2011 21:12:26
Btw cine se mai uita la filme pe rezolutie de 240x320 ? Treziti-va este 2011. Ar trebuii ca toti sa fiti pe cel putin 480x800. Nu inteleg cum puteti sta cu ochii "beliti" (scuze de expresie) intr-un device cu un display si o rezolutie atat de mica.
Man Eu am 2 telefoane primul de pe vremea lui nea Iliescu, nokia 9500, si e90  :D Nu trebuie sa belesc ochii  :D
PS. pixeli nu este egal cu marimea display(inchi)  :D Poti sa ai cum ai scris 400x800pix pe un display belea de mica, ca tot vei beli ochii  :D

Note: Posts were merged
#67
laur1989
MW Addicted
8382 mesaje
din 17/04/2007
4 aprecieri
05 iunie 2011, 23:16:51
Arata-mi un telefon cu rezolutia de 400x800 pe un display, sa te citez, "belea de mic".
#68
Blandu
Art Director
6160 mesaje
din 25/08/2005
16 aprecieri
05 iunie 2011, 23:59:31
Folositi pentru conversie codec h264 in container mp4 pentru ca este acceptat de majoritatea dispozitivelor si daca este setat la conversie pentru streaming, majoritatea deviceurilor vor putea sa il vada fara sa il descarce.
Un alt aspect este beatrate-ul care ar trebui sa fie variabil in cel putin 2 pasuri. Ar trebui setat la 1Mbps pentru video cu valoarea maxima 1.6 - 2 Mbps pentru o rezolutie de 480 de linii (inaltimea).
Ca si codec recomand AVC, Entropie: CABAC, Level de la 3.0 in sus, profil High.

Cam astea sun setarile ce le foloseste Youtube pentru 480p:

General
Video
Format : AVC
Format/Info : Advanced Video Codec
Format profile : Main@L3.0
Format settings, CABAC : Yes
Format settings, ReFrames : 3 frames
Muxing mode : Container profile=Unknown@3.0
Duration : 9mn 56s
Bit rate : 1 003 Kbps
Width : 854 pixels
Height : 480 pixels
Display aspect ratio : 16:9
Frame rate : 24.000 fps
Resolution : 24 bits
Colorimetry : 4:2:0
Scan type : Progressive
Bits/(Pixel*Frame) : 0.102
Stream size : 71.3 MiB (90%)
Audio
Format : AAC
Format/Info : Advanced Audio Codec
Format version : Version 4
Format profile : LC
Format settings, SBR : No
Duration : 9mn 56s
Bit rate : 108 Kbps
Channel(s) : 2 channels
Channel positions : L R
Sampling rate : 44.1 KHz
Resolution : 16 bits
Stream size : 7.68 MiB (10%)
Ca si convertoare va recomand Sorenson Squeeze care nu da gres dar dureaza ceva conversia si xilisovt video converter care nu are toate optiunile de la sorenson dar cred ca are optiune pentru subtitrare, e mai rapid si se descurca mai bine la batch converting. Daca se setarile sunt6 facute corect da rezultate foarte bune si el dar mai poate face viguri atunci cand pixelii din video sunt mai speciali. (in functie de format, pixelii pot fi altfel decat patrati (1:1)). Acesta din urma se foloseste si de tehnologia CUDA de la nvidia, marind viteza de conversie.

Sincer, acum, sa "dai" filme in format qvga mi se pare cat se poate de absurd. Cum spunea cineva inainte, la video, rezolutia joaca cel mai mic rol in marimea fisierului. Conteaza bitrate-ul, si codecul. Daca pentru aceleasi setari de conversie faci rezolutia mai mica diferenta va fi minora in dimensiunile fisierului, in schimb daca pentru aceeasi rezolutie micsorezi bitrate-ul, diverenta se va face simtita.
Avantajul la bitrate-ul variabil este faptul ca se analizeaza fiecare frame si in functie de "cantitatea" de motion (cati pixeli se modifica) se setreaza un bitrate mai mic sau mai mare. Astfel in scenele cu multa actiune bitrate-ul va creste (dar nu peste valoarea maxima setata) iar unde sunt imagini still va scadea destul de mult. Astfel obtii un raport calitate/cantitate foarte bun.


Daca tineti cont de aspectele astea nu aveti cum sa dati gres.

BTW: Pentru audio nu mai putin de 96kbps, ideal ar fi 112 sau 128, cu sample rate 44100. La fel encodarea ar trebui sa fie variabila iar codecul aac.
#69
Hotoman
MW Addicted
4261 mesaje
din 16/02/2009
13 aprecieri
05 iunie 2011, 23:59:57 • actualizat 06 iunie 2011, 00:00:48 (1 ori)
stergeti naiba topicul asta nu are link in homepage catre mobilewave
#70
HTC1
MW Lurker
270 mesaje
din 20/03/2011
SonyEricssonW910i
06 iunie 2011, 01:07:53
Asa este! Nu are link catre mobilewave.ro ! Nu incerca sa contrazici ma! Bla bla bla
#71
LucianGL
MW Addicted
2247 mesaje
din 22/08/2006
-2 aprecieri
06 iunie 2011, 01:23:33
mai demult cautam ceva pt ati-ul meu ca nu prea voia sa faca ce faceam cu nvidia cand am trecut de la unu la altu si uite asa am ajuns la ati sa citesc una alta,unde chiar pe siteul oficial amd scria clar ca ati e in dezavantaj fata de nvidia si ca sau facut probe unde se vede ca apar acele patratele in comparatie cu nvidia . deci da placa video are de-a face cu conversia . daca voi regasi linkul il voi pune aici . inainte sa spui da sau nu asigurate ca e asa,nu da cu presupusul ( valabil pt toata lumea )
Dacă am face cu toții lucrurile pe care suntem capabili să le facem,ne-am uimi pe noi inșine - set by Lucian
[img]http://img32.imageshack.us/img32/5485/sexygirlsok.jpg[/img]
#72
ov1d1u
MW Moderator
5624 mesaje
din 12/12/2007
89 aprecieri
06 iunie 2011, 01:28:04
Abia aștept link-ul ăla. Dacă e așa cum zici tu iar rezultatul unei conversii depinde de chipset-ul grafic, zău că îmi bag picioarele și mă las de facultate.
#73
TABela
MW Addicted
3952 mesaje
din 05/08/2008
78 aprecieri
06 iunie 2011, 01:44:20 • actualizat 06 iunie 2011, 01:51:32 (1 ori)
laur1989 05-06-2011 23:16:51
Arata-mi un telefon cu rezolutia de 400x800 pe un display, sa te citez, "belea de mic".
Am uitat sa pun ghilimele la belea de mic  :D
Totusi comparatii la marimea de display

nokia9500 vs Toshiba910
Merita sa compari telefoane sa vezi diferenta de marime.
Toshiba are un display rezonabil, chestia e ca un inchi daca tin bine minte este 25mm.
E90 are 4.0 inchi
Laur unde ai gasit descrierea asta de youtube?
Ce vrea sa insemne 'Stream size : 7.68 MiB (10%)' ?

Note: Posts were merged
#74
TABela
MW Addicted
3952 mesaje
din 05/08/2008
78 aprecieri
06 iunie 2011, 02:09:57
Gata! Am gasit Sorenson 6.00 portable. 241 mb  :D Acum o descarc.
Nu cunosc acest program.
Xilisoft am avut dar nu stiu ce sa zic. E cam la acelasi nivel cu tvc.
Publicitate
Publicitate
#75
Blandu
Art Director
6160 mesaje
din 25/08/2005
16 aprecieri
Android 2.2
06 iunie 2011, 09:36:10 • actualizat 06 iunie 2011, 09:41:56 (1 ori)
E versiunea 7 pe net. E mai ok decat 6.
"Descrierea" am facut-o eu analizand un video descarcat de pe youtube. Am facut pentru fiecar calitate in parte.
Stream size se refera la cat ocupa streamul (partea) video din tot clipul, el fiind format dintr-un stream video si unul audio.
Înapoi la Portaluri WAP/Web
cine e aici?
Subiectul a fost creat la .
Hei! Pentru a putea interacționa cu comunitatea Mobilewave trebuie să ai un cont (care e gratuit) și să fii autentificat.
Inițiator acum 10 ani
Ultimul acum 10 ani
whiteboy
MW Addicted
Cauta in topic
Unelte topic
Dacă vă place acest articol trimiteți mai departe!
  • Arăta mai bine înainte.. 27% ⋅ 35
  • E frumos dar nu prea 24% ⋅ 31
  • Laser frate! 50% ⋅ 65
Au votat 131 utilizatori
^
Mobilewave.ro logo
MobileWave.ro 2005-2014
© MW v1.0a PhoeniX
0.038⋅4⋅6
Portalul tău de telefoane mobile!